malcolm in the middle 1080p

1h 30m Default                     : No For the first 3 minutes of the Episode "Living Will" (3/6/2005), the bottom of the screen pages through a long list of fourteen alleged "producers". Channel(s)                  : 2 channels Format                      : UTF-8 La empresa de un comercial inmobiliario lo manda a vender unas viviendas... Descargar Peluda Venganza (2010) Full HD 1080p Latino. Frankie Muniz, Justin Berfield, Bryan Cranston, Jane Kaczmarek, Christopher Masterson, and Erik Per Sullivan in Malcolm in the Middle (2000) Default                     : Yes Default                     : No ID                          : 7 Forced                      : No, Audio #2 Count of elements           : 518 I was about to watch another episode of MITM on Netflix, and I noticed the 'HD' symbol that has come up. Forced                      : No, Text #3 Format settings, Reference  : 4 frames Duration                    : 21 min 50 s Default                     : No Malcolm in the Middle S05 E10 Hot Tub. Amazon.ca - Buy Malcolm in the Middle - Complete Collection (Seasons 1-7) - 22-DVD Box Set ( Malcolm in the Middle - Seasons One to Seven ) by Bryan Cranston at a low price; free shipping on qualified orders. Duration                    : 21 min 57 s Sampling rate               : 48.0 kHz Malcolm in the Middle now available in 'HD' on Netflix! Format settings             : CABAC / 4 Ref Frames Go on YouTube and you should find playlists of episodes divided into parts to watch them full. Bit rate                    : 224 kb/s malcolm.in.the.middle.s04e07.multi.1080p.web.h264-nero[eztv.io].mkv » video tv 4 months 2286 MB 1 5 Malcolm In The Middle - Temporada 5 [HDTV][Cap.501_522][Castellano][www.descargas2020.ORG][www.pctnew.ORG] » video tv An extended version of the pilot episode was released with the 'Complete First Season' DVD boxset. Language                    : Spanish Ahora puedes descargar peliculas por los mejores servidores gratis, incluyendo mega hd, podrás disfrutar de las películas hd eso no es todo, lo importante en hd full con opción de películas 1 link mega, Descargar Malcolm in the Middle (2006) Temporada 7 AMZN WEB-DL 1080p latino, Peluda Venganza (2010) Full HD 1080p Latino, Peluda Venganza (2010) REMUX 1080p Latino, Amor de Película (2019) WEB-DL 1080p Latino, His Dark Materials (2020) Temporada 2 AMZN WEB-DL 1080p Latino. AKA: Malcolm in the Middle, Fighting in Underpants, Малкольм у центрi уваги, Malcolm. Codec ID                    : A_EAC3 AKA: Malcolm in the Middle, Fighting in Underpants, Малкольм у центрi уваги, Malcolm. Gear up for Stephen King's upcoming adaptation with a look at some of our favorite photos from "The Stand," starring James Marsden, Whoopi Goldberg, and Alexander SkarsgÃ¥rd. View production, box office, & company info, Malcolm In The Middle: 5 Times Lois & Hal Were Couple Goals (& 5 Times They Weren't), 10 Things You Didn’t Know about David Anthony Higgins, Emma Stone to Star in The Curse Showtime Comedy From Uncut Gems' Safdie Brothers and Nathan Fielder. Generation Renovation Lake House S01E01 In the Middle of It WEBRip x264-LiGATE. Sampling rate               : 48.0 kHz I'm surprised no one has ever made a torrent for the HD version of Malcolm In the middle. Language                    : French Service kind                : Complete Main Count of elements           : 365 Especially since Hulu is USA only and no … Format                      : UTF-8 Encoded date                : UTC 2020-08-20 01:43:06 Format                      : Matroska While we have a chance to see the world from Dewey's very special point of view, Reese acts weird. 22 min Duration                    : 21 min 52 s I am on season 4, and it did say 1080p when I clicked 'option' on my PS4. ID                          : 6 Watch Free on IMDb TV. Service kind                : Complete Main Download Malcolm In The Middle » Malcolm In The Middle could be available for fast direct download Stream Malcolm In The Middle » Malcolm In The Middle could be available for streaming ... malcolm.in.the.middle.s04e18.multi.1080p.web.h264-nero[eztv.io].mkv » video tv 720p-1080p Forced                      : No, Text #2 | Stream size                 : 16.4 KiB (0%) Frame rate                  : 31.250 FPS (1536 SPF) Title                       : Francés [CinemaniaHDD] AKA: Malcolm in the Middle, Fighting in Underpants, Малкольм у центрi уваги, Malcolm Ella es realista, enérgica. Duration                    : 21 min 52 s Writing library             : libebml v1.3.10 + libmatroska v1.5.2, Video Format                      : UTF-8 Aunt Helen died and the family prepares for the funeral, an occasion that doesn't go as planned. AKA: Malcolm in the Middle, Fighting in Underpants, Малкольм у центрi уваги, Malcolm Malcolm in the Middle. Commercial name             : Dolby Digital Plus Screen Rant Color primaries             : BT.709 Page 1. Title                       : Español latino [CinemaniaHDD] {"handle":"cinemaniahdd","arch":"js","styles":{"a":"000066","b":100,"c":"FFFFFF","d":"FFFFFF","k":"000066","l":"000066","m":"000066","n":"FFFFFF","p":"10.62","q":"000066","r":100,"cnrs":"0.31","fwtickm":1}}, CINEMANIAHD NO ALMACENA NINGUN TIPO MATERIAL con derechos de autor, el material es recolectado de todas fuentes de Internet, Si desea que dicho material sea borrado porfavor contactarnos por email Format/Info                 : Advanced Video Codec Stream size                 : 35.2 MiB (1%) This was the first episode to air after the Academy Awards controversy over limiting to three, the number of "producers" who could win a best film Oscar. Malcolm in the Middle T07E01 AMZN WEB-DL 1080p Latino [CNMNHDD].mkv Add to Watchlist. Matrix coefficients         : BT.709, Audio #1 Codec ID/Info               : UTF-8 Plain Text Bit rate mode               : Constant La familia está compuesta por sus neuróticos padres Hal (Bryan Cranston) y Lois (Jane Kaczmarek), el hermano mayor Francis (Christopher Kennedy Masterson) y sus otros dos hermanos, Reese (Justin Berfield) y Dewey, Español Latino E-AC3 2.0 AMZN – Francés E-AC3 2.0 AMZN – Inglés E-AC3 5.1 AMZN, 0.0 While we have a chance to see the world from Dewey's very special point of view, Reese acts weird. Stream size                 : 14.4 KiB (0%) "Malcolm in the Middle" Pilot subtitles. 1 year ago. Format/Info                 : Enhanced AC-3 A gifted young teen tries to survive life with his dimwitted, dysfunctional family. Comedy, Family. Malcolm In The Middle RARE Extended Opening 1080p - YouTube Format/Info                 : Enhanced AC-3 2019. Go on YouTube and you should find playlists of episodes divided into parts to watch them full. Compression mode            : Lossy ID                          : 5 TV Series Frame rate                  : 31.250 FPS (1536 SPF) Movie name                  : Malcolm el de en medio T07E01 - CinemaniaHDD.Net Sampling rate               : 48.0 kHz Title                       : Francés [CinemaniaHDD] 1:19:18. For fans of the TV show Malcolm In The Middle. Bit rate mode               : Constant Color range                 : Limited Duration                    : 21 min 57 s Forced                      : No, Audio #3 Después de giros y vueltas, juntos se van a... 5.0 Display aspect ratio        : 16:9 Forced                      : No The series was first broadcast on January 9, 2000; it ended its six year run on May 14, 2006 after seven seasons and 151 episodes. Title                       : Inglés [CinemaniaHDD] Yes, no, maybe, I don't know, can you repeat the question? Service kind                : Complete Main Duration                    : 21 min 57 s A lot of other Netflix shows do already have torrents, so I was curious. دانلود مستقیم و رایگان سریال Malcolm in the Middle 2000 به همراه زیرنویس فارسی و کیفیت بالا Malcolm in the Middle 2000 ملکام این د میدل از رسانه بیا تو موویز Bia2Movies. Bits/(Pixel*Frame)          : 0.288 Descargar todos los capítulos de Malcolm in the middle, Malcolm el de en medio, Malcolm en audio latino en formatos MP4 y MKV. Color space                 : YUV Commercial name             : Dolby Digital Plus Channel(s)                  : 6 channels Width                       : 1 920 pixels "Malcolm in the Middle" Dinner Out subtitles. Channel(s)                  : 2 channels However, I am not really convinced that this is true 1080p, it is still quite grainy and choppy. Duration                    : 21 min 57 s Count of elements           : 366 Aunt Helen died and the family prepares for the funeral, an occasion that doesn't go as planned. Codec ID/Info               : UTF-8 Plain Text Codec ID                    : V_MPEG4/ISO/AVC Format settings, CABAC      : Yes Duration                    : 21 min 57 s Codec ID                    : S_TEXT/UTF8 Sitcom familiar que aborda los divertidos problemas y situaciones de una familia americana de clase media en la que el hijo Malcolm (Frankie Muniz) parece ser el único sensato… o al menos el único que da señales de cordura. The series received critical acclaim and won a Peabody Award, seven Emmy Awards, one Grammy Award, and was nominated for seven Golden … Hot Tub Time Machine 2 in HD 1080p, Watch Hot Tub Time Machine 2 in HD, Watch Hot Tub Time Machine 2 Online, Hot Tub Time Machine 2 Full Movie, Watch Hot Tub Time Machine 2 … صفحه‌اصلی ; فیلم. A gifted young teen tries to survive life with his dimwitted, dysfunctional family. dpeliculashdmega@gmail.com. Search for malcolm in the middle torrents. AKA: Малкольм у центрi уваги, Malcolm in the Middle, Fighting in Underpants, Malcolm. Format                      : AVC Title                       : Inglés [CinemaniaHDD] Channel layout              : L R Stream size                 : 35.2 MiB (1%) Added to Watchlist. ID                          : 4 I see the previews to this show when it was beginning to screen... and I must admit I hated it. Codec ID                    : S_TEXT/UTF8 Format                      : E-AC-3 Codec ID/Info               : UTF-8 Plain Text Default                     : No   |  Title                       : Español latino [CinemaniaHDD] 18.7k members in the malcolminthemiddle community. ID                          : 1 1 year ago. Posted by 3 years ago. Forced                      : No, Serie de TV (2000-2006). | There is a pair of headlights behind them following very close, but when seen from outside, the car is driving down the rain soaked road with no car behind them. | 1h 0m Continue reading → TV Shows 1080p, H264, in, Malcolm, Middle, Multi, NERO, S04E12, The, WEB. Language                    : English Bit rate                    : 102 b/s opening theme song: TVLine.com Transfer characteristics    : BT.709 1h 32m Él es romántico, tímido. Bit rate                    : 640 kb/s The series was first broadcast on January 9, 2000; it ended its six year run on May 14, 2006 after seven seasons and 151 episodes. Title                       : CinemaniaHDD Archived. Channel layout              : L R C LFE Ls Rs Malcolm in the Middle is an American television sitcom created by Linwood Boomer for the Fox Broadcasting Company. Malcolm In The Middle S04E12 MULTi 1080p WEB H264-NERO 00:22:00 | 1920×1080 @ 14646 kb/s | 23.98 fps(r) | ac3, 48000 Hz, stereo (fre) | 2.25 GiB. Language                    : French Compression mode            : Lossy Bit rate                    : 88 b/s   |  The Mandalorian (2019) Temporada 1 DSNY+ WEB-DL 4K [HDR] Latino – CMHDD, El señor de los anillos El retorno del Rey (2003) EXTENDED 4K REMUX Latino – CMHDD, Un mujeriego en apuros (1990) Full 1080p Latino, Los Picapiedra (1960-1966) [Serie Completa] REMUX 1080p Latino – CMHDD. Bit rate                    : 89 b/s Overall bit rate            : 15.4 Mb/s

Les Mots Clés Les Plus Tapés Sur Google, Ensemble Cr7 Nike, Etienne Daho Compagnon, Pas Entendues En 10 Lettres, Livres à Lire Absolument, Le Passeur Livre Résumé, Consulat Allemand Bretagne,

Laisser un commentaire

Votre adresse de messagerie ne sera pas publiée. Les champs obligatoires sont indiqués avec *

Ce site utilise Akismet pour réduire les indésirables. En savoir plus sur comment les données de vos commentaires sont utilisées.